+ meilleureasso.com »  :::: Bollywood Zone » Regional Movies
|- Andala Rakshasi 2012 Telugu 720p AMZN WEB-DL H264 DDP2.0 - NbT


100% DTH Offer

Andala Rakshasi 2012 Telugu 720p AMZN WEB-DL H264 DDP2.0 - NbT

0 Members and 1 Guest are viewing this topic.

October 08, 2018, 05:05:44 PM
  • Newbie
  • **
  • Topic Author
  • Thank You: 1
  • Reputation: 1
  • Activity:
    0.4%
  • Country: dk
  • Posts: 2
  • Topics: 2
  • Join Date: Oct 2018
  • ShareSpark Member
Quote
General
Unique ID                   : 232034058657392507044714977168238587104 (0xAE902258DF8B1697AA6DB6C763702CE0)
Complete name               : Andala Rakshasi 2012 Telugu 720p AMZN WEB-DL H264 DDP2.0 - NbT.mkv
Format                      : Matroska
Format version              : Version 4
File size                   : 3.76 GiB
Duration                    : 2 h 25 min
Overall bit rate mode       : Variable
Overall bit rate            : 3 699 kb/s
Encoded date                : UTC 2018-10-02 13:10:57
Writing application         : mkvmerge v27.0.0 ('Metropolis') 64-bit
Writing library             : libebml v1.3.6 + libmatroska v1.4.9
Cover                       : Yes
Attachments                 : cover.jpg

Video
ID                          : 1
Format                      : AVC
Format/Info                 : Advanced Video Codec
Format profile              : [email protected]
Format settings             : CABAC / 5 Ref Frames
Format settings, CABAC      : Yes
Format settings, ReFrames   : 5 frames
Codec ID                    : V_MPEG4/ISO/AVC
Duration                    : 2 h 25 min
Bit rate mode               : Variable
Bit rate                    : 3 474 kb/s
Maximum bit rate            : 4 500 kb/s
Width                       : 1 280 pixels
Height                      : 720 pixels
Display aspect ratio        : 16:9
Frame rate mode             : Constant
Frame rate                  : 24.000 FPS
Color space                 : YUV
Chroma subsampling          : 4:2:0
Bit depth                   : 8 bits
Scan type                   : Progressive
Bits/(Pixel*Frame)          : 0.157
Stream size                 : 3.53 GiB (94%)
Default                     : Yes
Forced                      : No
Color range                 : Limited
Color primaries             : BT.709
Transfer characteristics    : BT.709
Matrix coefficients         : BT.709

Audio
ID                          : 2
Format                      : E-AC-3
Format/Info                 : Enhanced AC-3
Commercial name             : Dolby Digital Plus
Codec ID                    : A_EAC3
Duration                    : 2 h 25 min
Bit rate mode               : Constant
Bit rate                    : 224 kb/s
Channel(s)                  : 2 channels
Channel layout              : L R
Sampling rate               : 48.0 kHz
Frame rate                  : 31.250 FPS (1536 SPF)
Compression mode            : Lossy
Stream size                 : 233 MiB (6%)
Title                       : Telugu
Language                    : Telugu
Service kind                : Complete Main
Default                     : No
Forced                      : No
















GOOGLE DRIVE LINK

Quote
[/size]

Share this topic on FacebookShare this topic on GoogleShare this topic on MySpaceShare this topic on TwitterShare this topic on Yahoo

« Last Edit: October 08, 2018, 05:08:38 PM by PussyRider »



Tags: Telugu amzn amazon h264 x264 
 

Related Topics

  Subject / Started by Replies Last post
0 Replies
162 Views
Last post June 01, 2018, 01:16:29 PM
by ♥ Mann ♥
0 Replies
151 Views
Last post June 01, 2018, 01:18:48 PM
by ♥ Mann ♥
0 Replies
322 Views
Last post June 04, 2018, 01:24:42 PM
by UnikAaYush
0 Replies
177 Views
Last post June 05, 2018, 05:37:22 PM
by ♥ Mann ♥
0 Replies
177 Views
Last post July 03, 2018, 05:45:15 PM
by ♥ Mann ♥




Back to top