+ meilleureasso.com »  :::: Bollywood Zone » Regional Movies » Bengali Movies
|- Inspector Notty K (2018) Bengali Movie - 2CD - HDTVRip[x264 - AC3(5.1Ch)]


Amazon Fashion

Inspector Notty K (2018) Bengali Movie - 2CD - HDTVRip[x264 - AC3(5.1Ch)]

0 Members and 1 Guest are viewing this topic.

October 07, 2018, 10:22:56 PM
  • Semi Newbie
  • **
  • Topic Author
  • Thank You: 0
  • Reputation: -1
  • Activity:
    5.4%
  • Country: bd
  • Posts: 27
  • Topics: 27
  • Join Date: Oct 2018
  • ShareSpark Member
  Inspector Notty K (2018) Bengali Movie -
2CD - HDTVRip[x264 - AC3(5.1Ch)]   
 




Code: [Select]
General
Format                                   : Matroska
Format version                           : Version 4
File size                                : 1.40 GiB
Duration                                 : 2 h 39 min

Video
ID                                       : 1
Format                                   : AVC
Format/Info                              : Advanced Video Codec
Format profile                           : [email protected]
Format settings                          : CABAC / 4 Ref Frames
Format settings, CABAC                   : Yes
Format settings, RefFrames               : 4 frames
Codec ID                                 : V_MPEG4/ISO/AVC
Duration                                 : 2 h 39 min
Bit rate                                 : 1 065 kb/s
Width                                    : 720 pixels
Height                                   : 304 pixels
Display aspect ratio                     : 2.35:1
Frame rate mode                          : Constant
Frame rate                               : 25.000 FPS
Color space                              : YUV
Chroma subsampling                       : 4:2:0
Bit depth                                : 8 bits
Scan type                                : Progressive
Bits/(Pixel*Frame)                       : 0.195
Stream size                              : 1.19 GiB (85%)

Audio
ID                                       : 2
Format                                   : AC-3
Format/Info                              : Audio Coding 3
Commercial name                          : Dolby Digital
Codec ID                                 : A_AC3
Duration                                 : 2 h 39 min
Bit rate mode                            : Constant
Bit rate                                 : 192 kb/s
Channel(s)                               : 6 channels
Channel layout                           : L R C LFE Ls Rs
Sampling rate                            : 48.0 kHz
Stream size                              : 219 MiB (15%)


  Thumbnail   





OR

OR

Share this topic on FacebookShare this topic on GoogleShare this topic on MySpaceShare this topic on TwitterShare this topic on Yahoo

« Last Edit: October 07, 2018, 10:31:07 PM by BUNGILI »



Tags:
 

Related Topics

  Subject / Started by Replies Last post
0 Replies
123 Views
Last post October 08, 2018, 02:25:58 PM
by BUNGILI
0 Replies
133 Views
Last post October 08, 2018, 03:04:21 PM
by BUNGILI
0 Replies
67 Views
Last post October 09, 2018, 12:51:54 PM
by BUNGILI
0 Replies
142 Views
Last post October 09, 2018, 01:03:15 PM
by BUNGILI
0 Replies
142 Views
Last post October 11, 2018, 07:08:36 PM
by BUNGILI




Back to top