+ meilleureasso.com »  :::: Bollywood Zone » Indian PC Videos
|- Don (2006) Bollywood Movie Music Album 1080p BluRay x264 DTS-HDMA 5.1 By ~MaLiK ZEE~


10% SBI and 10% Discount

Don (2006) Bollywood Movie Music Album 1080p BluRay x264 DTS-HDMA 5.1 By ~MaLiK ZEE~

0 Members and 1 Guest are viewing this topic.

September 29, 2018, 01:44:49 AM
Don (2006) Bollywood Movie Music Album 1080p BluRay x264 DTS-HDMA 5.1 By ~MaLiK ZEE~


~♥ BollyWooD MoviE ♥~
(Don 2006)

Quote

Specs ♪♫
General
Format                      : Matroska
Format version              : Version 4 / Version 2
File size                   : 3.02 GB
Overall bit rate mode       : Variable
Overall bit rate            : 16.3 Mb/s
Encoded date                : UTC 2018-09-27 03:19:36
Writing application         : mkvmerge v25.0.0 ('Prog Noir') 64-bit
Writing library             : libebml v1.3.6 + libmatroska v1.4.9

♪ Video ♪
ID                          : 1
Format                      : AVC
Format/Info                 : Advanced Video Codec
Format profile              : [email protected]
Format settings             : CABAC / 4 Ref Frames
Format settings, CABAC      : Yes
Format settings, ReFrames   : 4 frames
Codec ID                    : V_MPEG4/ISO/AVC
Bit rate mode               : Variable
Bit rate                    : 13.3 Mb/s
Maximum bit rate            : 40.0 Mb/s
Width                       : 1 920 pixels
Height                      : 812 pixels
Display aspect ratio        : 2.35:1
Frame rate mode             : Constant
Frame rate                  : 24.000 FPS
Color space                 : YUV
Chroma subsampling          : 4:2:0
Bit depth                   : 8 bits
Scan type                   : Progressive
Bits/(Pixel*Frame)          : 0.355
Stream size                 : 374 MiB (81%)
Language                    : English
Default                     : Yes
Forced                      : No
Color range                 : Limited
Color primaries             : BT.709
Transfer characteristics    : BT.709
Matrix coefficients         : BT.709

♫ Audio ♫
ID                          : 2
Format                      : DTS
Format/Info                 : Digital Theater Systems
Format profile              : MA / Core
Codec ID                    : A_DTS
Bit rate mode               : Variable / Constant
Bit rate                    : 3 072 kb/s / 1 509 kb/s
Channel(s)                  : 6 channels
Channel positions           : Front: L C R, Side: L R, LFE
Sampling rate               : 48.0 kHz
Frame rate                  : 93.750 FPS (512 SPF)
Bit depth                   : 16 bits
Compression mode            : Lossless / Lossy
Delay relative to video     : 7 ms
Stream size                 : 86.0 MiB (19%)
Title                       : By~MaLiK ZEE~
Language                    : Hindi
Default                     : Yes
Forced                      : No

English Subtitles : Yes
Chapters : Yes

Ripped By ~MaLiK ZEE~

 :ss:


















 :download:

Google Drive

Quote
01-Yeh Mera Dil Yaar Ka Dewaana [By ~MaLiK ZEE~]

02-Mourya Re [By ~MaLiK ZEE~]

03-Main Hoon Don [By ~MaLiK ZEE~]

04-Aaj Ki Raat [By ~MaLiK ZEE~]

05-Khaye Ke Paan Banaras Wala [By ~MaLiK ZEE~]





Share this topic on FacebookShare this topic on GoogleShare this topic on MySpaceShare this topic on TwitterShare this topic on Yahoo



Thanks given by:


September 29, 2018, 03:51:06 AM
Reply #1
  • Team SSX
  • Legend Member
  • ***
  • Thank You: 2992
  • Reputation: 787
  • Activity:
    100%
  • Country: np
  • Posts: 1877
  • Topics: 1079
  • Join Date: Jul 2016
  • Love Forever !!
 :wow:           :bravo:         :friends:        :10on10:         :claps:

Tags:
 

Related Topics





Back to top