+ meilleureasso.com »  :::: Bollywood Zone » Regional Movies
|- [MARATHI] BOYZ (2017) X265-720p-WEBHDrip 5.1ch


10% SBI and 10% Discount

[MARATHI] BOYZ (2017) X265-720p-WEBHDrip 5.1ch

0 Members and 1 Guest are viewing this topic.

August 04, 2018, 10:04:25 AM
  • Legend
  • Legend Member
  • ***
  • Topic Author
  • Thank You: 1430
  • Reputation: 402
  • Activity:
    100%
  • Country: in
  • Posts: 3611
  • Topics: 3493
  • Join Date: Sep 2013
  • The Pirate
  • Expertises:
  • Bollywood Movies
  • Hollywood Movies



HII...MY FRIENDS PLEASE SEED MY TORRENT....MY SEEDING IS LOW SO PLEASE SEED....THANKS & ENJOY

SOURCE @ZEE5
ENCODE BY @sahil

Video
ID                          : 1
Format                      : HEVC
Format/Info                : High Efficiency Video Coding
Format profile              : [email protected]@Main
Codec ID                    : hvc1
Codec ID/Info              : High Efficiency Video Coding
Duration                    : 2 h 9 min
Bit rate                    : 1 014 kb/s
Width                      : 1 280 pixels
Height                      : 720 pixels
Display aspect ratio        : 16:9
Frame rate mode            : Constant
Frame rate                  : 25.000 FPS
Color space                : YUV
Chroma subsampling          : 4:2:0
Bit depth                  : 8 bits
Bits/(Pixel*Frame)          : 0.044
Stream size                : 941 MiB (88%)

Audio
ID                          : 2
Format                      : AAC
Format/Info                : Advanced Audio Codec
Format profile              : LC
Codec ID                    : mp4a-40-2
Duration                    : 2 h 9 min
Bit rate mode              : Variable
Bit rate                    : 127 kb/s
Channel(s)                  : 2 channels
Channel positions          : Front: L R
Sampling rate              : 48.0 kHz
Frame rate                  : 46.875 FPS (1024 SPF)
Compression mode            : Lossy
Stream size                : 118 MiB (11%)
Title                      : Stereo / Stereo
Default                    : Yes
Alternate group            : 1


[MARATHI] BOYZ (2017) x265-720p-WEBHDrip 5.1ch
: BOYZ (2017) MARATHI WEBHDRIP 720p.mp4
: SAMPLE.mp4

Share this topic on FacebookShare this topic on GoogleShare this topic on MySpaceShare this topic on TwitterShare this topic on Yahoo




Bacheyan te mardan de vich,
Difference tan hunda ei aa,

Tags:
 

Related Topics

  Subject / Started by Replies Last post
0 Replies
569 Views
Last post March 17, 2017, 05:58:49 AM
by PSYCHO
0 Replies
645 Views
Last post March 17, 2017, 09:54:55 AM
by PSYCHO
0 Replies
534 Views
Last post April 23, 2017, 11:54:10 PM
by PSYCHO
0 Replies
776 Views
Last post November 20, 2017, 12:29:42 PM
by a2zRG
0 Replies
1030 Views
Last post November 20, 2017, 12:30:13 PM
by a2zRG




Back to top