+ meilleureasso.com »  :::: Bollywood Zone » Regional Movies » Bengali Movies
|- Aami Joy Chatterjee (2018) - Bengali Movie - 1CD - DvDScrRip[x264 - AAC3(2Ch)]


100% Bill Offer

Aami Joy Chatterjee (2018) - Bengali Movie - 1CD - DvDScrRip[x264 - AAC3(2Ch)]

0 Members and 1 Guest are viewing this topic.

February 02, 2018, 11:54:57 AM
  • Semi Newbie
  • **
  • Topic Author
  • Thank You: 3
  • Reputation: 1
  • Activity:
    0%
  • Country: bd
  • Posts: 8
  • Topics: 8
  • Join Date: Dec 2017
  • ShareSpark Member
  Aami Joy Chatterjee (2018)  - Bengali Movie -
1CD - DvDScrRip[x264 - AAC3(2Ch)]
 









Code: [Select]
General
Format                                   : Matroska
Format version                           : Version 2
File size                                : 700 MiB
Duration                                 : 2 h 12 min

Video
ID                                       : 1
Format                                   : AVC
Format/Info                              : Advanced Video Codec
Format profile                           : [email protected]
Format settings                          : CABAC / 4 Ref Frames
Format settings, CABAC                   : Yes
Format settings, RefFrames               : 4 frames
Codec ID                                 : V_MPEG4/ISO/AVC
Duration                                 : 2 h 12 min
Bit rate                                 : 609 kb/s
Width                                    : 640 pixels
Height                                   : 272 pixels
Display aspect ratio                     : 2.35:1
Frame rate mode                          : Constant
Frame rate                               : 25.000 FPS
Color space                              : YUV
Chroma subsampling                       : 4:2:0
Bit depth                                : 8 bits
Scan type                                : Progressive
Bits/(Pixel*Frame)                       : 0.140
Stream size                              : 577 MiB (82%)

Audio
ID                                       : 2
Format                                   : AAC
Format/Info                              : Advanced Audio Codec
Format profile                           : LC
Codec ID                                 : A_AAC-2
Duration                                 : 2 h 12 min
Bit rate                                 : 128 kb/s
Channel(s)                               : 2 channels
Channel positions                        : Front: L R
Sampling rate                            : 48.0 kHz
Stream size                              : 121 MiB (17%)

[video=http://www.youtube.com/watch?v=p43VxTXe74w]

Thumbnail











[/center]

Share this topic on FacebookShare this topic on GoogleShare this topic on MySpaceShare this topic on TwitterShare this topic on Yahoo




Tags:
 

Related Topics

  Subject / Started by Replies Last post
2 Replies
1417 Views
Last post January 18, 2018, 02:03:18 PM
by macwell
1 Replies
1174 Views
Last post February 03, 2018, 07:01:25 AM
by Changezi
0 Replies
1156 Views
Last post February 05, 2018, 11:03:11 AM
by Pherarim
0 Replies
123 Views
Last post October 08, 2018, 02:25:58 PM
by BUNGILI
0 Replies
133 Views
Last post October 08, 2018, 03:04:21 PM
by BUNGILI




Back to top