+ meilleureasso.com »  :::: Bollywood Zone » Regional Movies » Bengali Movies
|-  Golokdham Rahasya 'ফেলুদা' - 'Feluda' - 1CD - Detective Web Series Rip[x264 - AAC3(5.1Ch)] - E.Sub


Mastercard 10% Off

Golokdham Rahasya 'ফেলুদা' - 'Feluda' - 1CD - Detective Web Series Rip[x264 - AAC3(5.1Ch)] - E.Sub

0 Members and 1 Guest are viewing this topic.

January 23, 2018, 11:20:19 AM
  • Semi Newbie
  • **
  • Topic Author
  • Thank You: 3
  • Reputation: 1
  • Activity:
    0%
  • Country: bd
  • Posts: 8
  • Topics: 8
  • Join Date: Dec 2017
  • ShareSpark Member
  Golokdham Rahasya 'ফেলুদা' - 'Feluda' - 1CD -
 Detective Web Series Rip[x264 - AAC3(5.1Ch)] - E.Sub 





Code: [Select]
General
Format                                   : Matroska
Format version                           : Version 2
File size                                : 700 MiB
Duration                                 : 1 h 44 min

Video
ID                                       : 1
Format                                   : AVC
Format/Info                              : Advanced Video Codec
Format profile                           : [email protected]
Format settings                          : CABAC / 4 Ref Frames
Format settings, CABAC                   : Yes
Format settings, RefFrames               : 4 frames
Codec ID                                 : V_MPEG4/ISO/AVC
Duration                                 : 1 h 44 min
Bit rate                                 : 807 kb/s
Width                                    : 720 pixels
Height                                   : 408 pixels
Display aspect ratio                     : 16:9
Frame rate mode                          : Constant
Frame rate                               : 25.000 FPS
Color space                              : YUV
Chroma subsampling                       : 4:2:0
Bit depth                                : 8 bits
Scan type                                : Progressive
Bits/(Pixel*Frame)                       : 0.110
Stream size                              : 603 MiB (86%)

Audio
ID                                       : 2
Format                                   : AAC
Format/Info                              : Advanced Audio Codec
Format profile                           : HE-AAC / LC
Format settings                          : Explicit
Codec ID                                 : A_AAC-2
Duration                                 : 1 h 44 min
Bit rate                                 : 128 kb/s
Channel(s)                               : 6 channels
Channel positions                        : Front: L C R, Side: L R, LFE
Sampling rate                            : 48.0 kHz
Stream size                              : 95.5 MiB (14%)


Thumbnail









Share this topic on FacebookShare this topic on GoogleShare this topic on MySpaceShare this topic on TwitterShare this topic on Yahoo

« Last Edit: January 23, 2018, 11:29:49 AM by Pherarim »



Tags:
 

Related Topics

  Subject / Started by Replies Last post
0 Replies
917 Views
Last post March 11, 2016, 03:12:47 AM
by dhencoder
0 Replies
760 Views
Last post July 21, 2017, 11:52:58 PM
by ★ iamPK ★
0 Replies
644 Views
Last post October 01, 2017, 08:44:05 AM
by ★ iamPK ★
0 Replies
388 Views
Last post October 02, 2017, 10:21:06 PM
by ♥[--K4Krish--]♥
0 Replies
1118 Views
Last post December 30, 2017, 10:07:59 PM
by UnikAaYush




Back to top